tag star trek discovery the meg Ncis hindi NFL Doctor Who S11E01 the resident 9-1-1 s02e04 ufc The Good Doctor S02E03 ddr Vikings luciana souza Ant-Man and the Wasp Survivor manifest 1080p 2018 better call saul s04e10 etmovies LESBIAN ANAL SEX SLAVES 2018 ITA 2160p wwe ita 2018 avengers the man in the High Castle ufc 229 Big Bang Theory Manifest S01E03 lucifer 0 The big bang theory playboy venom incredibles 2 the walking dead great british bake off s09e07 ethd better call saul DTOne venom 2018 evo ettv arrow español ant mAN AND THE WASP the walking dead s09e01 madam secretary office 2019 walking dead game of thrones a star is born shameless s09e05 star trek discovery español dtone Sicario the good doctor shameless Bull doctor who 1080p YIFY WESTWORLD fgt Mission Impossible Fallout etrg 
Warning! Use a VPN When Downloading Torrents!
Your IP Address is 136.243.35.158. Location is Germany
Your Internet Provider is tracking your torrent activity! Hide your IP ADDRESS with a VPN!
We strongly recommend using NordVPN to anonymize your torrenting. 30 Day Money Back Guarantee!
Try it Now!
ETTV Recommended TV Shows
The.Flash.2014.S05E01.HDTV.x264-SVA[ettv] torrent
Black.Lightning.S02E01.HDTV.x264-SVA[ettv] torrent
Mayans.M.C.S01E06.WEBRip.x264-TBS[ettv] torrent
The.Purge.S01E06.WEB.x264-TBS[ettv] torrent

ETTV Recommended Xvid
The.Witch.Files.2018.HDRip.XViD-ETRG torrent
Searching.2018.HC.HDRip.XviD.AC3-EVO[EtMovies] torrent
Brothers.Nest.2018.DVDRip.XViD-ETRG torrent
22.Chaser.2018.HDRip.XviD.AC3-EVO torrent

ETTV Recommended HD
Constantine.City.of.Demons.The.Movie.2018.1080p.BluRay.x264.DTS-HDMA.5.1-DTOne torrent
Death.Race-Beyond.Anarchy.2018.Multi.1080p.BluRay.x264.DTS-HDMA.5.1-DTOne torrent
Hangman.2017.Multi.BluRay.1080p.x264.DTS-HDMA.5.1-DTOne torrent
The.Extraordinary.Journey.of.the.Fakir.2018.Multi.BluRay.1080p.x264.DTSXLL.5.1-DTOne torrent

ETTV Recommended UHD
Hook.1991.mUHD.2160p.BluRay.x265.HDR.DDP.5.1-DTOne torrent
Uncle.Drew.2018.2160p.mUHD.BluRay.x265.HDR.DDP.5.1-DTOne torrent
Hotel.Transylvania.3.Summer.Vacation.2018.mUHD.2160p.BluRay.x265.HDR.DDP.5.1-DTOne torrent
Hotel.Artemis.2018.mUHD.2160p.BluRay.x265.HDR.DDP.5.1-DTOne torrent

ETTV Recommended Cam
The Predator 2018 NEW HDCAM.XViD.AC3 ETRG torrent
THE NUN 2018 NEW HDCAM-24HD torrent
Venom 2018 HD-TS V2 X264-1XBET torrent
A.Star.Is.Born.2018.HDCAM.XViD.AC3-ETRG torrent

ETTV Recommended Foreign
Vaseegara (2003) DVDRip x264 - DTOne torrent
Gangs of Wasseypur Part 1 Uncensored - 2012 BluRay Hindi 720p x264 AAC 5.1 ESub - mkvCinemas torrent
Gangs of Wasseypur Part 2 Uncensored - 2012 BluRay Hindi 720p x264 AAC 5.1 ESub - mkvCinemas torrent
Imaikkaa Nodigal (2018) HDRip x264 - DTOne torrent

Social


Download Torrent "Avengers Infinity War (2017) (2160p BluRay x265 HEVC 10bit AAC 7.1 Joy) REP..."

IMDB Details
Description:

N/A

Genre:

N/A

Download Torrent (Magnet)
Download Torrent (File)
Seeds: 116
Leechers: 80
Completed: 788 
Last Checked: 29-08-2018 16:11:14


Loading...
Details
Title:Avengers Infinity War (2017) (2160p BluRay x265 HEVC 10bit AAC 7.1 Joy) REP...
Description:


REPACK REASON                 : Bad HDR to SDR conversion that clipped bright colors out of range.




Media Information
General
Format                                   : Matroska
Format version                           : Version 4 / Version 2
File size                                : 7.18 GiB
Duration                                 : 2 h 30 min
Overall bit rate                         : 6 851 kb/s
Movie name                               : Avengers Infinity War 2018  (2160p x265 10bit FS89 Joy)[UTR]
Encoded date                             : UTC 2018-08-27 06:43:53
Writing application                      : mkvmerge v25.0.0 ('Prog Noir') 64-bit
Writing library                          : libebml v1.3.6 + libmatroska v1.4.9
Cover                                    : Yes
Attachments                              : cover.jpg
Writing frontend                         : StaxRip v1.8.2.0

Video
ID                                       : 1
Format                                   : HEVC
Format/Info                              : High Efficiency Video Coding
Format profile                           : Main [email protected]@Main
Codec ID                                 : V_MPEGH/ISO/HEVC
Duration                                 : 2 h 29 min
Bit rate                                 : 5 990 kb/s
Width                                    : 3 840 pixels
Height                                   : 1 600 pixels
Display aspect ratio                     : 2.40:1
Frame rate mode                          : Constant
Frame rate                               : 23.976 (24000/1001) FPS
Color space                              : YUV
Chroma subsampling                       : 4:2:0
Bit depth                                : 10 bits
Bits/(Pixel*Frame)                       : 0.041
Stream size                              : 6.25 GiB (87%)
Writing library                          : x265 2.8+19-bcdc610cf5f0:[Windows][MSVC 1914][64 bit] 10bit
Encoding settings                        : cpuid=1111039 / frame-threads=3 / numa-pools=8 / wpp / no-pmode / no-pme / no-psnr / ssim / log-level=2 / input-csp=1 / input-res=3840x1600 / interlace=0 / total-frames=214872 / level-idc=0 / high-tier=1 / uhd-bd=0 / ref=3 / no-allow-non-conformance / no-repeat-headers / annexb / no-aud / no-hrd / info / hash=0 / no-temporal-layers / open-gop / min-keyint=23 / keyint=250 / gop-lookahead=0 / bframes=8 / b-adapt=2 / b-pyramid / bframe-bias=0 / rc-lookahead=20 / lookahead-slices=8 / scenecut=40 / radl=0 / no-intra-refresh / ctu=64 / min-cu-size=8 / no-rect / no-amp / max-tu-size=32 / tu-inter-depth=1 / tu-intra-depth=1 / limit-tu=0 / rdoq-level=1 / dynamic-rd=4.00 / ssim-rd / signhide / no-tskip / nr-intra=0 / nr-inter=0 / no-constrained-intra / strong-intra-smoothing / max-merge=2 / limit-refs=3 / no-limit-modes / me=1 / subme=2 / merange=57 / temporal-mvp / weightp / weightb / analyze-src-pics / deblock=0:0 / sao / sao-non-deblock / rd=3 / no-early-skip / rskip / no-fast-intra / no-tskip-fast / no-cu-lossless / b-intra / no-splitrd-skip / rdpenalty=0 / psy-rd=0.00 / psy-rdoq=0.00 / no-rd-refine / no-lossless / cbqpoffs=0 / crqpoffs=0 / rc=abr / bitrate=6000 / qcomp=0.60 / qpstep=4 / stats-write=0 / stats-read=2 / cplxblur=20.0 / qblur=0.5 / vbv-maxrate=12000 / vbv-bufsize=24000 / vbv-init=0.9 / ipratio=1.40 / pbratio=1.30 / aq-mode=3 / aq-strength=1.00 / cutree / zone-count=0 / no-strict-cbr / qg-size=32 / no-rc-grain / qpmax=69 / qpmin=0 / no-const-vbv / sar=0 / overscan=0 / videoformat=5 / range=0 / colorprim=2 / transfer=2 / colormatrix=2 / chromaloc=0 / display-window=0 / max-cll=0,0 / min-luma=0 / max-luma=1023 / log2-max-poc-lsb=8 / vui-timing-info / vui-hrd-info / slices=1 / no-opt-qp-pps / no-opt-ref-list-length-pps / multi-pass-opt-rps / scenecut-bias=0.05 / no-opt-cu-delta-qp / no-aq-motion / no-hdr / no-hdr-opt / no-dhdr10-opt / no-idr-recovery-sei / analysis-reuse-level=10 / scale-factor=0 / refine-intra=0 / refine-inter=0 / refine-mv=0 / limit-sao / ctu-info=0 / no-lowpass-dct / refine-mv-type=0 / copy-pic=1 / max-ausize-factor=1.0 / no-dynamic-refine / no-single-sei
Default                                  : Yes
Forced                                   : No

Audio #1
ID                                       : 2
Format                                   : AAC
Format/Info                              : Advanced Audio Codec
Format profile                           : LC
Codec ID                                 : A_AAC
Duration                                 : 2 h 29 min
Bit rate                                 : 529 kb/s
Channel(s)                               : 7 channels
Channel(s)_Original                      : 8 channels
Channel positions                        : Front: L C R, Side: L R, Back: L R, LFE
Sampling rate                            : 48.0 kHz
Frame rate                               : 46.875 FPS (1024 spf)
Compression mode                         : Lossy
Delay relative to video                  : 9 ms
Stream size                              : 569 MiB (8%)
Language                                 : English
Default                                  : No
Forced                                   : No

Audio #2
ID                                       : 3
Format                                   : AAC
Format/Info                              : Advanced Audio Codec
Format profile                           : HE-AAC / LC
Codec ID                                 : A_AAC
Duration                                 : 2 h 29 min
Bit rate                                 : 44.9 kb/s
Channel(s)                               : 2 channels
Channel positions                        : Front: L R
Sampling rate                            : 48.0 kHz / 24.0 kHz
Frame rate                               : 23.438 FPS (1024 spf)
Compression mode                         : Lossy
Delay relative to video                  : 31 ms
Stream size                              : 47.9 MiB (1%)
Title                                    : Commentary
Language                                 : English
Default                                  : No
Forced                                   : No

Audio #3
ID                                       : 13
Format                                   : AAC
Format/Info                              : Advanced Audio Codec
Format profile                           : LC
Codec ID                                 : A_AAC
Duration                                 : 2 h 29 min
Bit rate                                 : 89.4 kb/s
Channel(s)                               : 2 channels
Channel positions                        : Front: L R
Sampling rate                            : 48.0 kHz
Frame rate                               : 46.875 FPS (1024 spf)
Compression mode                         : Lossy
Delay relative to video                  : 9 ms
Stream size                              : 95.5 MiB (1%)
Language                                 : French
Default                                  : No
Forced                                   : No

Audio #4
ID                                       : 14
Format                                   : AAC
Format/Info                              : Advanced Audio Codec
Format profile                           : LC
Codec ID                                 : A_AAC
Duration                                 : 2 h 29 min
Bit rate                                 : 89.0 kb/s
Channel(s)                               : 2 channels
Channel positions                        : Front: L R
Sampling rate                            : 48.0 kHz
Frame rate                               : 46.875 FPS (1024 spf)
Compression mode                         : Lossy
Delay relative to video                  : 9 ms
Stream size                              : 95.0 MiB (1%)
Language                                 : Spanish
Default                                  : No
Forced                                   : No

Audio #5
ID                                       : 15
Format                                   : AAC
Format/Info                              : Advanced Audio Codec
Format profile                           : LC
Codec ID                                 : A_AAC
Duration                                 : 2 h 29 min
Bit rate                                 : 89.3 kb/s
Channel(s)                               : 2 channels
Channel positions                        : Front: L R
Sampling rate                            : 48.0 kHz
Frame rate                               : 46.875 FPS (1024 spf)
Compression mode                         : Lossy
Delay relative to video                  : 9 ms
Stream size                              : 95.4 MiB (1%)
Language                                 : Portuguese
Default                                  : No
Forced                                   : No

Subtitle #1
ID                                       : 4
Format                                   : PGS
Muxing mode                              : zlib
Codec ID                                 : S_HDMV/PGS
Codec ID/Info                            : Picture based subtitle format used on BDs/HD-DVDs
Duration                                 : 1 s 126 ms
Bit rate                                 : 87.8 kb/s
Count of elements                        : 2
Stream size                              : 12.1 KiB (0%)
Language                                 : English
Default                                  : No
Forced                                   : No

Subtitle #2
ID                                       : 5
Format                                   : VobSub
Muxing mode                              : zlib
Codec ID                                 : S_VOBSUB
Codec ID/Info                            : Picture based subtitle format used on DVDs
Duration                                 : 2 h 28 min
Bit rate                                 : 9 007 b/s
Count of elements                        : 2067
Stream size                              : 9.56 MiB (0%)
Language                                 : English
Default                                  : No
Forced                                   : No

Subtitle #3
ID                                       : 6
Format                                   : VobSub
Muxing mode                              : zlib
Codec ID                                 : S_VOBSUB
Codec ID/Info                            : Picture based subtitle format used on DVDs
Duration                                 : 2 h 28 min
Bit rate                                 : 3 849 b/s
Count of elements                        : 1576
Stream size                              : 4.10 MiB (0%)
Language                                 : Chinese
Default                                  : No
Forced                                   : No

Subtitle #4
ID                                       : 7
Format                                   : VobSub
Muxing mode                              : zlib
Codec ID                                 : S_VOBSUB
Codec ID/Info                            : Picture based subtitle format used on DVDs
Duration                                 : 2 h 28 min
Bit rate                                 : 4 620 b/s
Count of elements                        : 1575
Stream size                              : 4.92 MiB (0%)
Language                                 : Chinese
Default                                  : No
Forced                                   : No

Subtitle #5
ID                                       : 8
Format                                   : VobSub
Muxing mode                              : zlib
Codec ID                                 : S_VOBSUB
Codec ID/Info                            : Picture based subtitle format used on DVDs
Duration                                 : 2 h 28 min
Bit rate                                 : 6 696 b/s
Count of elements                        : 1597
Stream size                              : 7.13 MiB (0%)
Language                                 : French
Default                                  : No
Forced                                   : No

Subtitle #6
ID                                       : 9
Format                                   : VobSub
Muxing mode                              : zlib
Codec ID                                 : S_VOBSUB
Codec ID/Info                            : Picture based subtitle format used on DVDs
Duration                                 : 2 h 28 min
Bit rate                                 : 5 080 b/s
Count of elements                        : 1522
Stream size                              : 5.41 MiB (0%)
Language                                 : Japanese
Default                                  : No
Forced                                   : No

Subtitle #7
ID                                       : 10
Format                                   : VobSub
Muxing mode                              : zlib
Codec ID                                 : S_VOBSUB
Codec ID/Info                            : Picture based subtitle format used on DVDs
Duration                                 : 2 h 28 min
Bit rate                                 : 3 959 b/s
Count of elements                        : 1575
Stream size                              : 4.22 MiB (0%)
Language                                 : Korean
Default                                  : No
Forced                                   : No

Subtitle #8
ID                                       : 11
Format                                   : VobSub
Muxing mode                              : zlib
Codec ID                                 : S_VOBSUB
Codec ID/Info                            : Picture based subtitle format used on DVDs
Duration                                 : 2 h 28 min
Bit rate                                 : 6 511 b/s
Count of elements                        : 1572
Stream size                              : 6.93 MiB (0%)
Language                                 : Spanish
Default                                  : No
Forced                                   : No

Subtitle #9
ID                                       : 12
Format                                   : VobSub
Muxing mode                              : zlib
Codec ID                                 : S_VOBSUB
Codec ID/Info                            : Picture based subtitle format used on DVDs
Duration                                 : 2 h 28 min
Bit rate                                 : 4 479 b/s
Count of elements                        : 1577
Stream size                              : 4.77 MiB (0%)
Language                                 : Thai
Default                                  : No
Forced                                   : No

Subtitle #10
ID                                       : 16
Format                                   : VobSub
Muxing mode                              : zlib
Codec ID                                 : S_VOBSUB
Codec ID/Info                            : Picture based subtitle format used on DVDs
Duration                                 : 2 h 28 min
Bit rate                                 : 6 686 b/s
Count of elements                        : 1597
Stream size                              : 7.12 MiB (0%)
Language                                 : French
Default                                  : No
Forced                                   : No

Subtitle #11
ID                                       : 17
Format                                   : VobSub
Muxing mode                              : zlib
Codec ID                                 : S_VOBSUB
Codec ID/Info                            : Picture based subtitle format used on DVDs
Duration                                 : 2 h 28 min
Bit rate                                 : 6 500 b/s
Count of elements                        : 1572
Stream size                              : 6.92 MiB (0%)
Language                                 : Spanish
Default                                  : No
Forced                                   : No

Subtitle #12
ID                                       : 18
Format                                   : VobSub
Muxing mode                              : zlib
Codec ID                                 : S_VOBSUB
Codec ID/Info                            : Picture based subtitle format used on DVDs
Duration                                 : 2 h 28 min
Bit rate                                 : 6 849 b/s
Count of elements                        : 1566
Stream size                              : 7.29 MiB (0%)
Language                                 : Portuguese
Default                                  : No
Forced                                   : No

Subtitle #13
ID                                       : 19
Format                                   : UTF-8
Codec ID                                 : S_TEXT/UTF8
Codec ID/Info                            : UTF-8 Plain Text
Duration                                 : 2 h 29 min
Bit rate                                 : 74 b/s
Count of elements                        : 1392
Stream size                              : 81.3 KiB (0%)
Language                                 : Arabic
Default                                  : No
Forced                                   : No

Subtitle #14
ID                                       : 20
Format                                   : UTF-8
Codec ID                                 : S_TEXT/UTF8
Codec ID/Info                            : UTF-8 Plain Text
Duration                                 : 2 h 29 min
Bit rate                                 : 104 b/s
Count of elements                        : 1665
Stream size                              : 114 KiB (0%)
Language                                 : Bengali
Default                                  : No
Forced                                   : No

Subtitle #15
ID                                       : 21
Format                                   : UTF-8
Codec ID                                 : S_TEXT/UTF8
Codec ID/Info                            : UTF-8 Plain Text
Duration                                 : 2 h 28 min
Bit rate                                 : 35 b/s
Count of elements                        : 1712
Stream size                              : 39.0 KiB (0%)
Language                                 : Chinese
Default                                  : No
Forced                                   : No

Subtitle #16
ID                                       : 22
Format                                   : UTF-8
Codec ID                                 : S_TEXT/UTF8
Codec ID/Info                            : UTF-8 Plain Text
Duration                                 : 2 h 28 min
Bit rate                                 : 38 b/s
Count of elements                        : 1236
Stream size                              : 41.5 KiB (0%)
Language                                 : Danish
Default                                  : No
Forced                                   : No

Subtitle #17
ID                                       : 23
Format                                   : UTF-8
Codec ID                                 : S_TEXT/UTF8
Codec ID/Info                            : UTF-8 Plain Text
Duration                                 : 2 h 28 min
Bit rate                                 : 38 b/s
Count of elements                        : 1069
Stream size                              : 42.2 KiB (0%)
Language                                 : Dutch
Default                                  : No
Forced                                   : No

Subtitle #18
ID                                       : 24
Format                                   : UTF-8
Codec ID                                 : S_TEXT/UTF8
Codec ID/Info                            : UTF-8 Plain Text
Duration                                 : 2 h 29 min
Bit rate                                 : 71 b/s
Count of elements                        : 1521
Stream size                              : 77.9 KiB (0%)
Language                                 : Persian
Default                                  : No
Forced                                   : No

Subtitle #19
ID                                       : 25
Format                                   : UTF-8
Codec ID                                 : S_TEXT/UTF8
Codec ID/Info                            : UTF-8 Plain Text
Duration                                 : 2 h 28 min
Bit rate                                 : 39 b/s
Count of elements                        : 1572
Stream size                              : 43.0 KiB (0%)
Language                                 : Finnish
Default                                  : No
Forced                                   : No

Subtitle #20
ID                                       : 26
Format                                   : UTF-8
Codec ID                                 : S_TEXT/UTF8
Codec ID/Info                            : UTF-8 Plain Text
Duration                                 : 2 h 28 min
Bit rate                                 : 59 b/s
Count of elements                        : 1370
Stream size                              : 64.8 KiB (0%)
Language                                 : Hebrew
Default                                  : No
Forced                                   : No

Subtitle #21
ID                                       : 27
Format                                   : UTF-8
Codec ID                                 : S_TEXT/UTF8
Codec ID/Info                            : UTF-8 Plain Text
Duration                                 : 2 h 29 min
Bit rate                                 : 41 b/s
Count of elements                        : 1372
Stream size                              : 44.9 KiB (0%)
Language                                 : Indonesian
Default                                  : No
Forced                                   : No

Subtitle #22
ID                                       : 28
Format                                   : UTF-8
Codec ID                                 : S_TEXT/UTF8
Codec ID/Info                            : UTF-8 Plain Text
Duration                                 : 2 h 29 min
Bit rate                                 : 42 b/s
Count of elements                        : 1792
Stream size                              : 46.7 KiB (0%)
Language                                 : Malay
Default                                  : No
Forced                                   : No

Subtitle #23
ID                                       : 29
Format                                   : UTF-8
Codec ID                                 : S_TEXT/UTF8
Codec ID/Info                            : UTF-8 Plain Text
Duration                                 : 2 h 28 min
Bit rate                                 : 37 b/s
Count of elements                        : 1568
Stream size                              : 41.2 KiB (0%)
Language                                 : Norwegian
Default                                  : No
Forced                                   : No

Subtitle #24
ID                                       : 30
Format                                   : UTF-8
Codec ID                                 : S_TEXT/UTF8
Codec ID/Info                            : UTF-8 Plain Text
Duration                                 : 2 h 28 min
Bit rate                                 : 70 b/s
Count of elements                        : 1756
Stream size                              : 76.8 KiB (0%)
Language                                 : Russian
Default                                  : No
Forced                                   : No

Subtitle #25
ID                                       : 31
Format                                   : UTF-8
Codec ID                                 : S_TEXT/UTF8
Codec ID/Info                            : UTF-8 Plain Text
Duration                                 : 2 h 28 min
Bit rate                                 : 38 b/s
Count of elements                        : 1211
Stream size                              : 41.4 KiB (0%)
Language                                 : Swedish
Default                                  : No
Forced                                   : No

Subtitle #26
ID                                       : 32
Format                                   : UTF-8
Codec ID                                 : S_TEXT/UTF8
Codec ID/Info                            : UTF-8 Plain Text
Duration                                 : 2 h 29 min
Bit rate                                 : 79 b/s
Count of elements                        : 1579
Stream size                              : 87.1 KiB (0%)
Language                                 : Thai
Default                                  : No
Forced                                   : No

Subtitle #27
ID                                       : 33
Format                                   : UTF-8
Codec ID                                 : S_TEXT/UTF8
Codec ID/Info                            : UTF-8 Plain Text
Duration                                 : 2 h 28 min
Bit rate                                 : 75 b/s
Count of elements                        : 1725
Stream size                              : 82.1 KiB (0%)
Language                                 : Urdu
Default                                  : No
Forced                                   : No

Subtitle #28
ID                                       : 34
Format                                   : UTF-8
Codec ID                                 : S_TEXT/UTF8
Codec ID/Info                            : UTF-8 Plain Text
Duration                                 : 2 h 28 min
Bit rate                                 : 54 b/s
Count of elements                        : 1625
Stream size                              : 59.8 KiB (0%)
Language                                 : Vietnamese
Default                                  : No
Forced                                   : No

Menu #1
00:00:00.000                             : en:"Thanos is Coming"
00:11:28.730                             : en:Infinity Stones
00:18:13.884                             : en:Fight for the Time Stone
00:27:23.809                             : en:"Who the Hell are You Guys?"
00:35:48.813                             : en:Wanda and Vision
00:42:23.541                             : en:Knowhere
00:54:12.875                             : en:Avengers Assemble
00:59:36.740                             : en:"Take the Fight To Him"
01:05:07.153                             : en:The Soul Stone
01:10:53.666                             : en:Nidavellir
01:17:06.956                             : en:Titan
01:24:14.758                             : en:Vormir
01:31:08.004                             : en:"Wakanda Forever"
01:42:00.406                             : en:Stormbreaker
01:45:57.810                             : en:Titan Confrontation
01:53:04.069                             : en:"A Vision Situation"
01:58:52.917                             : en:The Time Stone
02:03:58.181                             : en:The End Game
02:11:13.282                             : en:Aftermath
02:17:31.285                             : en:End Credits

Menu #2
00:00:00.000                             : en:Chapter 1
00:11:28.729                             : en:Chapter 2
00:18:13.884                             : en:Chapter 3
00:27:23.808                             : en:Chapter 4
00:35:48.813                             : en:Chapter 5
00:42:23.541                             : en:Chapter 6
00:54:12.874                             : en:Chapter 7
00:59:36.739                             : en:Chapter 8
01:05:07.153                             : en:Chapter 9
01:10:53.666                             : en:Chapter 10
01:17:06.955                             : en:Chapter 11
01:24:14.758                             : en:Chapter 12
01:31:08.004                             : en:Chapter 13
01:42:00.405                             : en:Chapter 14
01:45:57.809                             : en:Chapter 15
01:53:04.068                             : en:Chapter 16
01:58:52.917                             : en:Chapter 17
02:03:58.180                             : en:Chapter 18
02:11:13.282                             : en:Chapter 19
02:17:31.284                             : en:Chapter 20

Source Information
Release: Avengers.Infinity.War.2018.2160p.UHD.BluRay.REMUX.HDR.HEVC.Atmos-EPSiLON  (53.7 GB)


UTR wrote:

Note From UTR
We have no issue with individuals posting or re-uploading our torrents on a platform we aren't on. However, if this is something you'd like to do, please do so in a 'as-is' format. We ask that you do not create a new torrent, include all descriptions you see above including the UTR logo, tags, notes and screenshots. If you'd like to become a permanent poster on a website we don't post to, feel free to get in contact with a UniTeam member.

If possible please donate: BTC 1QA5fum5AyXvWzdVCkQzUNvw3Ef15fHRaR



Category:Movies > HEVC/x265
Lang:English  English
Total Size:7.45 GB
Info Hash:e49b88f21b67e48a7809029e6ced7cccccab4223
Added By:UTR
Date Added:29-08-2018 16:11:05

Files

File List: 
 File Size
Avengers Infinity War 2018 (2160p x265 10bit FS89 Joy).mkv7.18 GB
Encoded by JoyBell (UTR).txt2.73 kB
Extras/Avengers a Strange Alchemy.mkv30 MB
Extras/Beyond the Battle - Titian.mkv56 MB
Extras/Beyond the Battle - Wakanda.mkv78 MB
Extras/Blooper Reel.mkv12 MB
Extras/Deleted Scenes.mkv60 MB
Extras/Thanos.mkv31 MB
folder.jpg58.18 kB
How to play HEVC (THIS FILE).txt3.41 kB
Ninite K-Lite Codecs Unattended Silent Installer and Updater.website561.00 B



Loading...
Comments

There are currently no comments. Be the first one to write something !

Disclaimer: None of the files shown here are actually hosted or transmitted by this server. The links are provided solely by this site's users. The site moderation is also a service provided by the site's users. The administrator of this site (ettv.tv) cannot be held responsible for what its users post, or any other actions of its users. You may not use this site to distribute or download any material when you do not have the legal rights to do so. It is your own responsibility to adhere to these terms.