tag star trek discovery the meg Ncis hindi NFL Doctor Who S11E01 the resident 9-1-1 s02e04 ufc The Good Doctor S02E03 ddr Vikings luciana souza Ant-Man and the Wasp Survivor manifest 1080p 2018 better call saul s04e10 etmovies LESBIAN ANAL SEX SLAVES 2018 ITA 2160p wwe ita 2018 avengers the man in the High Castle ufc 229 Big Bang Theory Manifest S01E03 lucifer 0 The big bang theory playboy venom incredibles 2 the walking dead great british bake off s09e07 ethd better call saul DTOne venom 2018 evo ettv arrow español ant mAN AND THE WASP the walking dead s09e01 madam secretary office 2019 walking dead game of thrones a star is born shameless s09e05 star trek discovery español dtone Sicario the good doctor shameless Bull doctor who 1080p YIFY WESTWORLD fgt Mission Impossible Fallout etrg 
Warning! Use a VPN When Downloading Torrents!
Your IP Address is 136.243.35.158. Location is Germany
Your Internet Provider is tracking your torrent activity! Hide your IP ADDRESS with a VPN!
We strongly recommend using NordVPN to anonymize your torrenting. 30 Day Money Back Guarantee!
Try it Now!
ETTV Recommended TV Shows
The.Flash.2014.S05E01.HDTV.x264-SVA[ettv] torrent
Black.Lightning.S02E01.HDTV.x264-SVA[ettv] torrent
Mayans.M.C.S01E06.WEBRip.x264-TBS[ettv] torrent
The.Purge.S01E06.WEB.x264-TBS[ettv] torrent

ETTV Recommended Xvid
Mamma.Mia.Here.We.Go.Again.2018.HDRip.XViD-ETRG torrent
Never.Goin.Back.2018.HDRip.XViD-ETRG torrent
The.Witch.Files.2018.HDRip.XViD-ETRG torrent
Searching.2018.HC.HDRip.XviD.AC3-EVO[EtMovies] torrent

ETTV Recommended HD
Constantine.City.of.Demons.The.Movie.2018.1080p.BluRay.x264.DTS-HDMA.5.1-DTOne torrent
Death.Race-Beyond.Anarchy.2018.Multi.1080p.BluRay.x264.DTS-HDMA.5.1-DTOne torrent
Hangman.2017.Multi.BluRay.1080p.x264.DTS-HDMA.5.1-DTOne torrent
The.Extraordinary.Journey.of.the.Fakir.2018.Multi.BluRay.1080p.x264.DTSXLL.5.1-DTOne torrent

ETTV Recommended UHD
Hook.1991.mUHD.2160p.BluRay.x265.HDR.DDP.5.1-DTOne torrent
Shutter.Island.2010.2160p.mUHD.BluRay.x265.HDR.DDP.5.1-DTOne torrent
Uncle.Drew.2018.2160p.mUHD.BluRay.x265.HDR.DDP.5.1-DTOne torrent
Hotel.Transylvania.3.Summer.Vacation.2018.mUHD.2160p.BluRay.x265.HDR.DDP.5.1-DTOne torrent

ETTV Recommended Cam
The Predator 2018 NEW HDCAM.XViD.AC3 ETRG torrent
THE NUN 2018 NEW HDCAM-24HD torrent
A Star Is Born 2018 720p HDCAM-1XBET torrent
Venom 2018 HD-TS V2 X264-1XBET torrent

ETTV Recommended Foreign
Gayatri (2018) 720p UNCUT HDRip x264 Eng Subs [Dual Audio] [Hindi DD 2.0 - Telugu 2.0] Exclusive By -=!Dr.STAR!=- torrent
Aake (2017) 720p UNCUT HDRip x264 [Dual Audio] [Hindi DD 2.0 - Kannada DD 5.1] Exclusive By -=!Dr.STAR!=- torrent
Vaseegara (2003) DVDRip x264 - DTOne torrent
Imaikkaa Nodigal (2018) [TAMIL - 720p - WEB HDRip - x264 - DD 5.1 - ESub - 2GB] - MAZE torrent

Social


Download Torrent "Avengers Age Of Ultron (2015) 1080p Blu-ray DTS-HDMA x264 Dual Audio Englis..."

IMDB Details
Description:

N/A

Genre:

N/A

Download Torrent (Magnet)
Download Torrent (File)
Seeds: 30
Leechers: 6
Completed: 141,931 
Last Checked: 02-09-2018 17:38:51


Loading...
Details
Title:Avengers Age Of Ultron (2015) 1080p Blu-ray DTS-HDMA x264 Dual Audio Englis...
Description:



1080p Blu-ray Rip x264

Dual Audio
English Untouched DTS-HDMA 7.1
Hindi Untouched 5.1 AC3


English Director's Commentary Subtitle
&
English Hearing Impaired Subtitle








Specs:

Source: BD50 @ LAZERS

Format : Matroska
File size : 12.7 GiB
Duration : 2h 21mn
Overall bit rate mode : Variable
Overall bit rate : 12.9 Mbps

Video
Format : AVC
Format profile : [email protected]
Nominal bit rate : 8 000 Kbps
Width : 1 920 pixels
Height : 800 pixels
Display aspect ratio : 2.40:1
Frame rate mode : Constant
Frame rate : 23.976 fps
Color space : YUV
Chroma subsampling : 4:2:0
Bit depth : 8 bits
Scan type : Progressive

Audio #1
Format : DTS
Format/Info : Digital Theater Systems
Format profile : MA / Core
Bit rate mode : Variable
Bit rate : 4.2 Mbps / 1 509 Kbps
Channel(s) : 8 channels / 6 channels
Channel positions : Front: L C R, Side: L R, Back: L R, LFE / Front: L C R, Side: L R, LFE
Sampling rate : 48.0 KHz
Bit depth : 24 bits
Compression mode : Lossless / Lossy
Stream size : 4.17 GiB
Language : English
Default : Yes
Forced : No

Audio #2
Format : AC-3
Bit rate mode : Constant
Bit rate : 640 Kbps
Channel(s) : 6 channels
Channel positions : Front: L C R, Side: L R, LFE
Sampling rate : 48.0 KHz
Bit depth : 16 bits
Compression mode : Lossy
Stream size : 647 MiB (5%)
Language : Hindi
Default : No
Forced : No

Language : Hindi & English
Chapters : YES


SAMPLE Included



A DDR Exclusive Encode
Category:Movies > Dubs/Dual Audio
Lang:Hindi  Hindi
Total Size:12.78 GB
Info Hash:79b96fdbb983613db0ac5a23caf330d99e696289
Added By:DDR
Date Added:02-09-2018 17:38:47

Files

File List: 
 File Size
(sample) Avengers Age Of Ultron (2015) 1080p Blu-ray DTS-HDMA x264 Dual Audio English-Hindi ESubs [DDR] (1).mkv64 MB
A DDR Release.txt293.00 B
Avengers Age Of Ultron (2015) 1080p Blu-ray DTS-HDMA x264 Dual Audio English-Hindi ESubs [DDR].mkv12.72 GB
Torrent downloaded from Extratorrent.cc.txt36.00 B



Loading...
Comments

There are currently no comments. Be the first one to write something !

Disclaimer: None of the files shown here are actually hosted or transmitted by this server. The links are provided solely by this site's users. The site moderation is also a service provided by the site's users. The administrator of this site (ettv.tv) cannot be held responsible for what its users post, or any other actions of its users. You may not use this site to distribute or download any material when you do not have the legal rights to do so. It is your own responsibility to adhere to these terms.